<?xml version="1.0" standalone="no"?>
<!DOCTYPE svg PUBLIC "-//W3C//DTD SVG 1.1//EN" "http://www.w3.org/Graphics/SVG/1.1/DTD/svg11.dtd" >
<svg xmlns="http://www.w3.org/2000/svg" preserveAspectRatio="xMinYMid meet">
<metadata>
<json>
<![CDATA[
{
	"fontFamily": "h5p-hub",
	"description": "Font generated by IcoMoon.",
	"majorVersion": 1,
	"minorVersion": 2,
	"version": "Version 1.2",
	"fontId": "h5p-hub",
	"psName": "h5p-hub",
	"subFamily": "Regular",
	"fullName": "h5p-hub"
}
]]>
</json>
</metadata>
<defs>
<font id="h5p-hub" horiz-adv-x="1024">
<font-face units-per-em="1024" ascent="960" descent="-64" />
<missing-glyph horiz-adv-x="1024" />
<glyph unicode="&#x20;" horiz-adv-x="512" d="" />
<glyph unicode="&#xe900;" glyph-name="hub-icon" data-tags="hub-icon" horiz-adv-x="3151" d="M2075.75 851.162c-52.861 50.54-132.54 71.428-238.778 71.428h-341.406v-180.502h-445.839l-34.811-150.332c127.383 60.081 304.017 51.572 410.513-46.415 114.232-105.723 118.616-280.81 42.547-410.255-29.918-49.803-71.932-89.584-122.082-115.998-22.836-11.385-46.301-15.51-67.962-24.535h346.563v334.96h180.502c126.093 0 261.47 37.648 320.52 159.615 53.377 110.621 42.805 274.363-49.251 361.003zM1834.909 561.587c-22.95-19.597-62.66-25.786-119.131-25.786h-91.283v206.287h103.144c45.641 0 96.439-7.22 124.031-47.704 10.884-15.937 17.38-35.624 17.38-56.827 0-30.173-13.153-57.274-34.039-75.882zM1104.65 455.091c-51.309-0.225-95.603-30.032-116.728-73.235l-258.2 30.431 117.068 510.304h-227.948v-386.79h-335.218v386.79h-283.645v-928.295h283.645v335.218h335.218v-335.218h347.595c-120.163 27.591-202.162 119.389-235.942 235.426l257.86 36.616c21.885-43.147 65.92-72.201 116.74-72.201 72.061 0 130.477 58.417 130.477 130.477 0 72.036-58.376 130.436-130.403 130.477zM2349.081-5.705h-88.704l40.484 192.364c4.125 17.792 10.83 46.673-3.352 62.144-6.816 6.002-15.818 9.665-25.676 9.665-7.905 0-15.26-2.356-21.401-6.404-38.017-22.343-51.426-80.878-60.709-120.588l-28.88-137.181h-88.704l97.213 458.991h88.704c-12.635-58.276-25.786-115.779-43.063-173.024h2.578c32.233 39.968 88.188 67.043 137.439 39.71s43.063-91.283 33.263-137.439zM2502.766 324.355h88.704l-40.226-192.364c-4.125-17.792-10.83-46.673 3.352-62.144 6.692-5.69 15.433-9.151 24.983-9.151 8.206 0 15.815 2.556 22.074 6.914 38.036 22.35 51.446 80.885 60.728 120.595l28.88 136.408h88.704l-69.88-330.318h-67.818l6.188 60.855h-1.805c-29.138-45.641-81.226-81.741-137.181-61.886-61.886 21.66-54.151 100.823-43.836 152.395zM3029.573 329.513c121.452 0 99.018-171.477 66.27-243.42-17.851-42.906-52.266-75.891-95.049-91.439-10.226-3.641-20.722-5.538-31.659-5.538-34.769 0-65.061 19.168-80.885 47.514l-2.561 0.47-16.503-42.805h-68.075l97.213 458.991h88.704l-18.308-84.836c-7.927-35.089-16.792-64.571-27.415-93.202l3.95 5.014c18.385 28.168 48.934 47.071 84.013 49.236zM2993.988 257.57c-77.358 0-118.358-206.287-35.843-197.779 65.496 7.22 115.263 198.81 35.843 198.81z" />
<glyph unicode="&#xe901;" glyph-name="close" data-tags="close" d="M996.811 80.993l-117.806-117.806c-18.123-18.123-36.248-27.186-54.371-27.186s-45.309 9.063-54.371 27.186l-253.734 253.734-253.734-253.734c-18.123-18.123-36.248-27.186-54.371-27.186s-45.309 9.063-54.371 27.186l-126.866 117.806c-18.123 18.123-27.186 36.248-27.186 54.371s9.063 45.309 27.186 54.371l253.734 253.734-253.734 262.795c-18.123 18.123-27.186 36.248-27.186 54.371s9.063 45.309 27.186 54.371l117.806 117.806c9.063 18.123 36.248 27.186 54.371 27.186s45.309-9.063 54.371-27.186l253.734-253.734 253.734 253.734c18.123 18.123 36.248 27.186 54.371 27.186s45.309-9.063 54.371-27.186l117.806-117.806c18.123-18.123 27.186-36.248 27.186-54.371s-9.063-45.309-27.186-54.371l-253.734-253.734 253.734-253.734c18.123-18.123 27.186-36.248 27.186-54.371 9.063-27.186 0-45.309-18.123-63.434z" />
<glyph unicode="&#xe902;" glyph-name="update" data-tags="update" d="M1006.087 337.042c-50.74-230.955-253.618-401.245-496.27-401.245-136.563 0-260.529 53.937-351.756 141.671l-85.417-85.74c-7.539-7.889-18.11-12.826-29.834-12.937-23.653 0-42.811 19.158-42.811 42.791v298.542c0 23.633 19.158 42.791 42.791 42.791h298.542c23.633 0 42.791-19.158 42.791-42.791-0.229-11.723-5.137-22.256-12.928-29.845l-91.562-91.562c61.037-58.59 144.073-94.668 235.534-94.668 123.332 0 231.342 65.602 291.039 163.816 13.033 23.194 24.775 48.799 34.484 75.382 3.84 12.412 11.737 18.617 21.093 18.674h124.399c11.326-0.52 20.378-9.572 20.896-20.85-0.083-1.508-0.441-2.864-1.022-4.095zM1023.005 575.876c0-23.633-19.158-42.791-42.791-42.791h-298.542c-23.633 0-42.791 19.158-42.791 42.791 0.229 11.723 5.137 22.256 12.928 29.845l91.562 91.562c-60.754 56.6-142.523 91.342-232.407 91.342-122.536 0-229.991-64.569-290.197-161.538-13.035-23.149-24.777-48.754-34.479-75.341-3.834-12.399-11.732-18.604-21.088-18.661h-131.365c-0.357-0.021-0.775-0.033-1.195-0.033-11.050 0-20.188 8.186-21.68 18.825l-0.013 0.116c52.365 229.436 254.678 398.058 496.375 398.058 0.42 0 0.841-0.001 1.261-0.002 136.546-0.841 260.466-54.489 352.455-141.536l86.336 85.808c7.598 7.8 18.131 12.708 29.812 12.936 23.675 0.001 42.833-19.158 42.833-42.79z" />
<glyph unicode="&#xe903;" glyph-name="question-outlined" data-tags="question-outlined" d="M512.133-64c-281.733 0-510.4 228.667-510.4 510.4s228.667 510.267 510.4 510.267c281.733 0 510.4-228.533 510.4-510.4 0-281.6-228.667-510.267-510.4-510.267zM86.8 446.4c0-234.533 190.667-425.333 425.333-425.333 234.533 0 425.333 190.667 425.333 425.333s-190.667 425.333-425.333 425.333c-234.533 0-425.333-190.8-425.333-425.333zM642.4 415.2c-34.533-20-55.867-32.533-55.867-53.867v-21.333c0-12-9.333-21.2-21.2-21.2h-106.267c-12 0-21.2 9.333-21.2 21.2v45.2c0 81.733 58.533 107.6 105.6 128.933 39.867 18.667 64.4 31.2 64.4 61.2 0 38.533-48.533 67.067-92.4 67.067-23.2 0-47.867-7.333-63.067-18-14.667-10-28.533-24.533-53.2-55.2-4-5.333-10-8-16.667-8-4.667 0-9.333 1.333-12.667 4l-71.733 54.533c-8.667 6.667-10.667 19.333-4.667 28.533 54.533 85.867 130.933 127.733 232 127.733 108.933 0 231.2-86.4 231.2-202 0-94.4-65.733-131.6-114.267-158.8zM586.533 138c0-12-9.333-21.2-21.2-21.2h-106.267c-12 0-21.2 9.333-21.2 21.2v106.267c0 12 9.333 21.2 21.2 21.2h106.267c12 0 21.2-9.333 21.2-21.2v-106.267z" />
<glyph unicode="&#xe904;" glyph-name="remove" data-tags="remove" d="M1024 856.869l-103.131 103.131-408.869-408.869-408.869 408.869-103.131-103.131 408.869-408.869-408.869-408.869 103.131-103.131 408.869 408.869 408.869-408.869 103.131 103.131-408.869 408.869z" />
<glyph unicode="&#xe905;" glyph-name="check" data-tags="check" d="M1021.469 686.541c0 17.084-6.328 32.903-18.349 44.924l-89.849 89.215c-24.677 24.677-64.539 24.677-89.215 0.633 0 0 0 0-0.633-0.633l-432.156-432.79-193.616 194.25c-24.677 24.677-64.539 24.677-89.215 0.633 0 0 0 0-0.633-0.633l-89.215-89.215c-24.677-24.677-24.677-64.539-0.633-89.215 0 0 0 0 0.633-0.633l327.755-327.755c24.677-24.677 64.539-24.677 89.215-0.633 0 0 0 0 0.633 0.633l569.46 569.46c12.022 12.022 18.349 27.84 18.349 44.924v0l-2.531-3.163z" />
<glyph unicode="&#xe906;" glyph-name="details-arrow" data-tags="details-arrow" d="M512 960.001l-90.24-90.24 357.12-357.76h-778.879v-127.999h778.879l-357.12-357.76 90.24-90.24 511.999 511.999z" />
<glyph unicode="&#xe90b;" glyph-name="quality-approved" data-tags="quality-approved" d="M511.035-64c-282.358 0.552-511.035 229.567-511.035 512 0 282.771 229.229 512 512 512s512-229.229 512-512c-0.552-282.891-230.012-512-512.976-512 0 0 0 0 0 0zM511.035 808.726c-200.301 0-362.668-162.366-362.668-362.668s162.366-362.668 362.668-362.668c200.301 0 362.668 162.366 362.668 362.668 0.001 0.577 0.002 1.253 0.002 1.943 0 200.495-162.262 363.094-362.62 363.632zM499.397 222.061c-7.707-7.656-18.334-12.386-30.067-12.386s-22.347 4.73-30.068 12.387l-193.942 193.942c-7.656 7.707-12.386 18.334-12.386 30.067s4.73 22.347 12.387 30.068l67.875 67.875c7.707 7.656 18.334 12.386 30.067 12.386s22.347-4.73 30.068-12.387l96.965-96.965 183.27 183.27c7.707 7.656 18.334 12.386 30.067 12.386s22.347-4.73 30.068-12.387l67.875-67.875c7.896-7.603 12.796-18.261 12.796-30.067s-4.9-22.463-12.789-30.048z" />
<glyph unicode="&#xe90c;" glyph-name="arrow-thick" data-tags="arrow-thick" d="M994.077 405.975c0.101-1.517 0.165-3.291 0.165-5.083 0-42.816-34.052-77.683-76.553-78.988l-462.522-0.001 195.049-193.368c15.112-15.195 24.45-36.144 24.45-59.274s-9.339-44.072-24.453-59.277l-49.601-49.601c-15.104-14.984-35.883-24.284-58.829-24.382-0.165 0-0.335-0.001-0.504-0.001-23.093 0-44.016 9.312-59.21 24.387l-430.445 428.763c-14.984 15.104-24.284 35.883-24.382 58.829 0 0.165-0.001 0.335-0.001 0.504 0 23.093 9.312 44.016 24.387 59.21l430.445 427.083c15.191 15.487 36.309 25.124 59.67 25.223 23.094-0.338 43.872-9.928 58.854-25.205l49.613-48.774c15.36-15.238 24.867-36.357 24.867-59.69s-9.507-44.452-24.864-59.688l-192.53-192.53h462.402c42.621-1.315 76.673-36.173 76.673-78.99 0-1.784-0.056-3.557-0.173-5.321z" />
<glyph unicode="&#xe90d;" glyph-name="grid-view" data-tags="grid-view" d="M472.053 563.718c0-43.623-35.362-78.985-78.985-78.985h-314.083c-43.623 0-78.985 35.362-78.985 78.985v240.619c0 43.623 35.362 78.985 78.985 78.985h315.002c43.623 0 78.985-35.362 78.985-78.985zM472.053 91.664c0-43.623-35.362-78.985-78.985-78.985h-314.083c-43.623 0-78.985 35.362-78.985 78.985v236.026c0 43.623 35.362 78.985 78.985 78.985h315.002c43.623 0 78.985-35.362 78.985-78.985zM1023.081 563.718c0-43.623-35.362-78.985-78.985-78.985h-314.083c-43.623 0-78.985 35.362-78.985 78.985v240.619c0 43.623 35.362 78.985 78.985 78.985h315.002c43.623 0 78.985-35.362 78.985-78.985zM1023.081 91.664c0-43.623-35.362-78.985-78.985-78.985h-314.083c-43.623 0-78.985 35.362-78.985 78.985v236.026c0 43.623 35.362 78.985 78.985 78.985h315.002c43.623 0 78.985-35.362 78.985-78.985z" />
<glyph unicode="&#xe90e;" glyph-name="list-view" data-tags="list-view" d="M292.59 702.61c0.020-0.549 0.025-1.208 0.025-1.858 0-30.672-24.365-55.65-54.795-56.654l-182.939-0.001c-30.515 0.994-54.881 25.982-54.881 56.655 0 0.65 0.016 1.298 0.036 1.956l-0.001 117.84c-0.020 0.549-0.025 1.208-0.025 1.858 0 30.672 24.365 55.65 54.795 56.654l182.939 0.001c30.515-0.994 54.881-25.982 54.881-56.655 0-0.65-0.016-1.298-0.036-1.956zM292.59 389.035c0.020-0.549 0.025-1.208 0.025-1.858 0-30.672-24.365-55.65-54.795-56.654l-182.939-0.001c-30.515 0.994-54.881 25.982-54.881 56.655 0 0.65 0.016 1.298 0.036 1.956l-0.001 117.84c-0.020 0.549-0.025 1.208-0.025 1.858 0 30.672 24.365 55.65 54.795 56.654l182.939 0.001c30.515-0.994 54.881-25.982 54.881-56.655 0-0.65-0.016-1.298-0.036-1.956zM292.59 75.452c0.020-0.549 0.025-1.208 0.025-1.858 0-30.672-24.365-55.65-54.795-56.654l-182.939-0.001c-30.515 0.994-54.881 25.982-54.881 56.655 0 0.65 0.016 1.298 0.036 1.956l-0.001 117.84c-0.020 0.549-0.025 1.208-0.025 1.858 0 30.672 24.365 55.65 54.795 56.654l182.939 0.001c30.515-0.994 54.881-25.982 54.881-56.655 0-0.65-0.016-1.298-0.036-1.956zM1023.965 702.61c0.020-0.549 0.025-1.208 0.025-1.858 0-30.672-24.365-55.65-54.795-56.654l-548.623-0.001c-30.515 0.994-54.881 25.982-54.881 56.655 0 0.65 0.016 1.298 0.036 1.956l-0.001 117.84c-0.020 0.549-0.025 1.208-0.025 1.858 0 30.672 24.365 55.65 54.795 56.654l548.623 0.001c30.515-0.994 54.881-25.982 54.881-56.655 0-0.65-0.016-1.298-0.036-1.956zM1023.965 389.035c0.020-0.549 0.025-1.208 0.025-1.858 0-30.672-24.365-55.65-54.795-56.654l-548.623-0.001c-30.515 0.994-54.881 25.982-54.881 56.655 0 0.65 0.016 1.298 0.036 1.956l-0.001 117.84c-0.020 0.549-0.025 1.208-0.025 1.858 0 30.672 24.365 55.65 54.795 56.654l548.623 0.001c30.515-0.994 54.881-25.982 54.881-56.655 0-0.65-0.016-1.298-0.036-1.956zM1023.965 75.452c0.020-0.549 0.025-1.208 0.025-1.858 0-30.672-24.365-55.65-54.795-56.654l-548.623-0.001c-30.515 0.994-54.881 25.982-54.881 56.655 0 0.65 0.016 1.298 0.036 1.956l-0.001 117.84c-0.020 0.549-0.025 1.208-0.025 1.858 0 30.672 24.365 55.65 54.795 56.654l548.623 0.001c30.515-0.994 54.881-25.982 54.881-56.655 0-0.65-0.016-1.298-0.036-1.956z" />
<glyph unicode="&#xe90f;" glyph-name="filters" data-tags="filters" d="M217.543 834.589v98.249c0 14.999-12.163 27.162-27.162 27.162h-8.785c-14.999 0-27.162-12.163-27.162-27.162v-98.249c-63.792-14.19-110.78-70.3-110.78-137.38s46.988-123.189 109.844-137.208l0.936-592.841c0-14.999 12.163-27.162 27.162-27.162h7.99c14.999 0 27.162 12.163 27.162 27.162v588.669c69.551 9.191 122.666 68.109 122.666 139.435 0 71.041-52.699 129.772-121.13 139.246zM549.82 417.644v515.184c0 14.999-12.163 27.162-27.162 27.162h-4.796c-14.999 0-27.162-12.163-27.162-27.162v-513.593c-71.358-12.114-125.020-73.469-125.020-147.364s53.662-135.26 124.145-147.242l0.884-159.869c0-14.999 12.163-27.162 27.162-27.162h4.796c14.999 0 27.162 12.163 27.162 27.162v159.745c67.325 15.43 116.8 74.826 116.8 145.772s-49.464 130.342-115.794 145.579zM980.345 594.96c-0.075 69.212-51.022 126.499-117.453 136.489l-0.764 201.379c0 14.999-12.163 27.162-27.162 27.162h-6.387c-14.999 0-27.162-12.163-27.162-27.162v-205.273c-58.17-16.849-99.977-69.642-99.977-132.191s41.807-115.342 99-131.95l0.967-500.252c0-14.999 12.163-27.162 27.162-27.162h4.796c14.999 0 27.162 12.163 27.162 27.162v496.022c67.608 9.329 119.206 66.436 119.809 135.722z" />
<glyph unicode="&#xe910;" glyph-name="feedback-forum" data-tags="feedback-forum" d="M471.58 255.643c0 109.286 123.509 197.614 276.21 197.614s276.21-88.328 276.21-197.614c-4.493-67.986-45.258-125.495-102.959-153.719 9.214-37.081 28.772-68.27 54.921-92.43 4.623-5.36 9.863-10.6 8.367-18.086v0c-1.109-6.844-6.975-12.007-14.049-12.007-0.325 0-0.646 0.011-0.965 0.032-13.354 1.595-25.288 3.96-36.882 7.142-53.939 13.188-102.324 38.963-142.365 74.031-6.318-0.709-14.167-0.923-22.067-0.923s-15.747 0.214-23.542 0.635c-149.37-0.047-272.878 86.784-272.878 195.321zM335.345 352.204c55.391 149.707 229.052 247.766 428.162 247.766h28.444c0.421 4.932 0.66 10.672 0.66 16.468s-0.24 11.537-0.709 17.21c0.049 156.449-177.354 282.952-397.424 282.952s-394.478-128.749-394.478-285.192c5.307-98.94 64.284-182.951 148.144-223.872-13.537-52.161-41.367-95.968-78.331-130.007-6.935-8.414-14.419-15.151-12.174-25.63v0c1.498-9.811 9.877-17.24 19.991-17.24 0.34 0 0.679 0.009 1.016 0.025 19.325 2.295 36.591 5.711 53.365 10.318 76.451 19.56 144.933 56.71 201.601 106.896 3.232-1.193-2.009 1.053 1.735 0.305z" />
<glyph unicode="&#xe918;" glyph-name="info-circle" data-tags="info-circle" d="M955.31 705.39c43.186-73.717 68.69-162.334 68.69-256.907s-25.502-183.189-70.005-259.347c-44.17-75.42-107.228-138.478-182.684-182.664-76.121-44.487-164.738-69.989-259.311-69.989s-183.189 25.502-259.347 70.005c-75.42 44.17-138.478 107.228-182.664 182.684-44.487 76.121-69.989 164.738-69.989 259.311s25.502 183.189 70.005 259.347c44.283 75.035 107.323 137.765 182.666 181.695 76.14 44.489 164.754 69.992 259.326 69.992s183.189-25.502 259.347-70.005c75.325-43.919 138.365-106.647 182.668-181.747zM682.95 125.9v106.239c0.016 0.297 0.025 0.643 0.025 0.989 0 11.2-9.082 20.282-20.282 20.282-0.349 0-0.695-0.009-1.039-0.027l-65.627 0.002v347.694c0.016 0.297 0.025 0.643 0.025 0.989 0 11.2-9.082 20.282-20.282 20.282-0.349 0-0.695-0.009-1.039-0.027l-211.466 0.002c-0.297 0.016-0.643 0.025-0.989 0.025-11.2 0-20.282-9.082-20.282-20.282 0-0.349 0.009-0.695 0.027-1.039l-0.002-106.192c-0.016-0.297-0.025-0.643-0.025-0.989 0-11.2 9.082-20.282 20.282-20.282 0.349 0 0.695 0.009 1.039 0.027l63.696-0.002v-213.445h-63.744c-0.297 0.016-0.643 0.025-0.989 0.025-11.2 0-20.282-9.082-20.282-20.282 0-0.349 0.009-0.695 0.027-1.039l-0.002-106.192c-0.016-0.297-0.025-0.643-0.025-0.989 0-11.2 9.082-20.282 20.282-20.282 0.349 0 0.695 0.009 1.039 0.027l298.39-0.002c0.297-0.016 0.643-0.025 0.989-0.025 11.2 0 20.282 9.082 20.282 20.282 0 0.349-0.009 0.695-0.027 1.039zM596.026 725.672v106.239c0.016 0.297 0.025 0.643 0.025 0.989 0 11.2-9.082 20.282-20.282 20.282-0.349 0-0.695-0.009-1.039-0.027l-126.474 0.002c-0.297 0.016-0.643 0.025-0.989 0.025-11.2 0-20.282-9.082-20.282-20.282 0-0.349 0.009-0.695 0.027-1.039l-0.002-106.192c-0.016-0.297-0.025-0.643-0.025-0.989 0-11.2 9.082-20.282 20.282-20.282 0.349 0 0.695 0.009 1.039 0.027l127.44-0.002c0.007 0 0.016 0 0.023 0 11.2 0 20.282 9.082 20.282 20.282 0 0.34-0.009 0.677-0.025 1.014z" />
<glyph unicode="&#xe91b;" glyph-name="radio" data-tags="radio" d="M512-64c-282.77 0-512 229.23-512 512s229.23 512 512 512c282.77 0 512-229.23 512-512s-229.23-512-512-512zM512 870.161c-233.151 0-422.158-189.007-422.158-422.158s189.007-422.158 422.158-422.158c233.151 0 422.158 189.007 422.158 422.158s-189.007 422.158-422.158 422.158zM723.562 448.002c0-116.842-94.721-211.563-211.563-211.563s-211.563 94.721-211.563 211.563c0 116.842 94.721 211.563 211.563 211.563s211.563-94.721 211.563-211.563z" />
<glyph unicode="&#xe91c;" glyph-name="check1" data-tags="check" d="M910.2 960h-796.4c-62.6 0-113.8-51.2-113.8-113.8v-796.4c0-62.6 51.2-113.8 113.8-113.8h796.4c62.6 0 113.8 51.2 113.8 113.8v796.4c0 62.6-51.2 113.8-113.8 113.8zM398.2 163.6l-284.4 284.4 79.6 79.6 204.8-204.8 432.4 432.4 79.6-79.6-512-512z" />
<glyph unicode="&#xe91d;" glyph-name="radio-empty" data-tags="radio-empty" d="M512-64c-282.77 0-512 229.23-512 512s229.23 512 512 512c282.77 0 512-229.23 512-512s-229.23-512-512-512zM512 870.161c-233.152 0-422.159-189.007-422.159-422.159s189.007-422.159 422.159-422.159c233.152 0 422.159 189.007 422.159 422.159s-189.007 422.159-422.159 422.159z" />
<glyph unicode="&#xe91e;" glyph-name="check-empty" data-tags="check-empty" d="M910.2 846.2v-796.4h-796.4v796.4h796.4zM910.2 960h-796.4c-62.6 0-113.8-51.2-113.8-113.8v-796.4c0-62.6 51.2-113.8 113.8-113.8h796.4c62.6 0 113.8 51.2 113.8 113.8v796.4c0 62.6-51.2 113.8-113.8 113.8z" />
<glyph unicode="&#xe91f;" glyph-name="accordion-arrow" data-tags="accordion-arrow" d="M780.996 403.166l-448.336-448.336c-11.456-11.546-27.295-18.725-44.814-18.83-34.979 0.498-63.186 28.705-63.682 63.617v896.72c0.498 34.958 28.705 63.167 63.617 63.663 17.586-0.103 33.426-7.284 44.877-18.826l448.34-448.34c11.63-11.401 18.839-27.276 18.839-44.833s-7.208-33.432-18.828-44.825z" />
<glyph unicode="&#xe920;" glyph-name="search" data-tags="search" d="M944.067-64c-0.055 0-0.124 0-0.191 0-21.446 0-40.843 8.766-54.805 22.911l-210.858 213.607c-68.418-47.621-153.272-76.084-244.775-76.084-238.466 0-431.783 193.316-431.783 431.783s193.316 431.783 431.783 431.783c238.466 0 431.783-193.316 431.783-431.783 0-91.503-28.463-176.355-77.017-246.191l211.781-209.432c13.83-14.189 22.361-33.602 22.361-55.006 0-43.346-34.978-78.521-78.249-78.837zM432.526 801.398c-151.889 0-275.020-123.133-275.020-275.020s123.133-275.020 275.020-275.020c151.889 0 275.020 123.133 275.020 275.020s-123.133 275.020-275.020 275.020z" />
<glyph unicode="&#xe921;" glyph-name="scrollbar-bars-icon" data-tags="scrollbar-bars-icon" d="M865.309 806.697c0-28.745-11.977-51.5-28.745-51.5h-649.127c-16.767 0-28.745 22.756-28.745 51.5v101.802c0 28.745 11.977 51.5 28.745 51.5h644.34c16.767 0 28.745-22.756 28.745-51.5zM865.309 398.297c0-28.745-11.977-51.5-28.745-51.5h-649.127c-16.767 0-28.745 22.756-28.745 51.5v101.802c0 28.745 11.977 51.5 28.745 51.5h644.34c16.767 0 28.745-22.756 28.745-51.5zM865.309-12.5c0-28.745-11.977-51.5-28.745-51.5h-649.127c-16.767 0-28.745 22.756-28.745 51.5v101.802c0 28.745 11.977 51.5 28.745 51.5h644.34c16.767 0 28.745-22.756 28.745-51.5z" />
<glyph unicode="&#xe923;" glyph-name="loading-search" data-tags="loading-search" d="M513-22.7c-130.9 0-253.9 51-346.5 143.5-92.5 92.6-143.5 215.7-143.5 346.5 0 92.7 26 182.9 75.2 261 47.9 75.9 115.5 137.2 195.6 177.4l41.2-82.2c-65.1-32.6-120.1-82.5-159-144.2-40-63.4-61.1-136.7-61.1-212 0-219.5 178.6-398.1 398.1-398.1s398.1 178.6 398.1 398.1c0 75.3-21.1 148.6-61.1 212-38.9 61.7-93.9 111.6-159 144.2l41.2 82.1c80.1-40.1 147.7-101.4 195.6-177.3 49.2-78.1 75.2-168.3 75.2-261 0-130.9-51-253.9-143.5-346.5-92.6-92.5-215.6-143.5-346.5-143.5z" />
<glyph unicode="&#xe924;" glyph-name="arrow-line" data-tags="arrow-line" d="M995.878 700.739l-43.703 43.703c-17.591 16.506-41.326 26.645-67.432 26.645s-49.837-10.139-67.483-26.693l-303.387-303.389-305.935 304.692c-17.468 16.781-41.244 27.116-67.432 27.116s-49.958-10.335-67.464-27.148l-44.92-44.92c-17.371-17.206-28.122-41.062-28.122-67.432s10.752-50.226 28.112-67.421l414.583-414.583c17.206-17.371 41.062-28.122 67.432-28.122s50.226 10.752 67.421 28.112l418.329 414.583c17.371 17.206 28.122 41.062 28.122 67.432s-10.752 50.226-28.112 67.421z" />
</font>
</defs>
</svg>
